Sinopsis: Marina (Daniela di Pascuali) es una joven que desea entrar al camino de La Santeria, y cuyo sueño es convertirse en inspector de un cuerpo de investigaciones policiales; lamentablemente, a su alrededor se teje un mundo de engaño y delincuencia que utiliza la religion como mascara para cometer diversos delitos. Para realizar sus sueños Marina deberá luchar contra la maldad que la rodea antes de que sea arrastrada a un círculo de desesperacion.

Datos Película:
Director: Jackson Gutierrez
Actores: Daniela di Pascuali, Guillermo Londoño, Jackson Gutierrez, Gladys Prince, Dailin Valdivieso, Robert Garcia, Dalmiro Anzola y Ambar Díaz.
Idioma: Español.
País: Venezuela.
Género: Drama, Acción, Brujeria, Santería.
Tiempo: 59 minutos.
Grupo: aRkAnGeL.

Caps:


Enlaces para poder Descargar La Película:
Código:
Part1: http://oron.com/a2w20gphgq9t
Part2: http://depositfiles.com/files/s97nl6szj
Part3: http://www.fileserve.com/file/VtzdCPt
Part4: http://netload.in/dateibBQg6xNNMt/CV.Iyawo.LaJusticiaDeOlofi_2011_www.ultraforos.com_aRkAnGeL.part4.rar.htm
Part5: http://www.filesonic.com/file/zQfoemE/CV.Iyawo.LaJusticiaDeOlofi_2011_www.ultraforos.com_aRkAnGeL.part5.rar
Datos del Ripeo:
Complete name : CV.Iyawo.LaJusticiaDeOlofi_DVDRip.XviD.2011_www.ul traforos.com_aRkAnGeL.avi
Format : AVI
Format/Info : Audio Video Interleave
Format profile : OpenDML
File size : 1.04 GiB
Duration : 59mn 53s
Overall bit rate : 2 495 Kbps
Writing application : Lavf52.31.0
Video #0
ID : 0
Format : xvid
Codec ID : xvid
Duration : 59mn 53s
Bit rate : 2 351 Kbps
Width : 720 pixels
Height : 304 pixels
Display aspect ratio : 2.35:1
Frame rate : 23.976 fps
Bits/(Pixel*Frame) : 0.448
Stream size : 1 007 MiB (94%)
Audio #1
ID : 1
Format : MPEG Audio
Format version : Version 1
Format profile : Layer 3
Mode : Joint stereo
Mode extension : MS Stereo
Codec ID : 55
Codec ID/Hint : MP3
Duration : 59mn 53s
Bit rate mode : Constant
Bit rate : 128 Kbps
Channel(s) : 2 channels
Sampling rate : 48.0 KHz
Compression mode : Lossy
Stream size : 4.85 MiB (0%)
Alignment : Aligned on interleaves
Interleave, duration : 271 ms (6.50 video frames)
Writing library : LAME3.97